<svg xmlns="http://www.w3.org/2000/svg"><defs><font id="WorkSans" horiz-adv-x="581"><font-face alphabetic="0" ascent="930" descent="-243" font-family="Work Sans Medium" panose-1="0 0 6 0 0 0 0 0 0 0" units-per-em="1000"/><glyph glyph-name="space" horiz-adv-x="325"/><glyph d="M196 396L182 210H98L84 396V660H196V396ZM174 132T194 113T215 61Q215 29 195 10T140 -9Q106 -9 86 10T66 61Q66 93 86 112T140 132Q174 132 194 113Z" glyph-name="exclam" horiz-adv-x="281" unicode="!"/><glyph d="M332 430H254V686H359L332 430ZM154 430H76V686H181L154 430Z" glyph-name="quotedbl" horiz-adv-x="416" unicode="&quot;"/><glyph d="M498 412L472 252H588V179H460L430 0H348L377 179H222L193 0H110L140 179H22V252H152L178 412H65V485H191L219 660H302L273 485H428L457 660H539L510 485H632V412H498ZM416 412H261L234 252H390L416 412Z" glyph-name="numbersign" horiz-adv-x="655" unicode="#"/><glyph d="M279 1Q102 16 41 158L118 214Q132 163 176 129T279 84V292Q213 306 169 323T95 374T65 466Q65 543 122 596T279 659V756H356V658Q433 652 483 620T571 526L500 461Q474 515 441 542T356 575V364Q422 350 466 333T540 280T570 186Q570 108 512 59T356 1V-96H279V1ZM279 575Q223 569 194 543T165 473Q165 434 194 414T279 380V575ZM471 94T471 179Q471 219 442 240T356 275V83Q471 94 471 179Z" glyph-name="dollar" horiz-adv-x="622" unicode="$"/><glyph d="M280 670T325 620T371 486Q371 403 326 353T204 302Q128 302 83 352T37 486Q37 569 82 619T204 670Q280 670 325 620ZM610 660H702L271 0H178L610 660ZM166 592T146 565T125 486Q125 436 145 409T204 381Q243 381 263 408T284 486Q284 537 264 564T204 592Q166 592 146 565ZM752 358T797 308T843 174Q843 91 798 41T676 -10Q600 -10 555 40T509 174Q509 257 554 307T676 358Q752 358 797 308ZM638 279T618 252T597 174Q597 123 617 96T676 68Q715 68 735 95T756 174Q756 224 736 251T676 279Q638 279 618 252Z" glyph-name="percent" horiz-adv-x="880" unicode="%"/><glyph d="M613 -10Q568 -10 534 4T453 62Q416 28 367 9T258 -10Q195 -10 146 12T69 73T41 164Q41 223 76 271T193 359Q151 412 135 446T119 517Q119 556 138 591T196 648T288 670Q362 670 408 634T454 528Q454 470 425 427T320 344Q361 293 381 270Q436 204 458 179Q494 244 494 327L493 350L572 344Q574 283 558 226T508 124Q544 89 570 78T632 68L613 -10ZM253 589T234 569T215 516Q215 491 226 468T276 397Q330 429 347 458T364 524Q364 556 345 572T288 589Q253 589 234 569ZM137 127T173 98T261 69Q341 69 402 115Q356 164 318 210L303 227L240 302Q179 265 158 236T137 171Q137 127 173 98Z" glyph-name="ampersand" horiz-adv-x="630" unicode="&amp;"/><glyph d="M154 430H76V686H181L154 430Z" glyph-name="quotesingle" horiz-adv-x="239" unicode="'"/><glyph d="M339 691Q245 605 206 510T166 278Q166 141 205 47T339 -134L283 -190Q174 -102 119 16T63 278Q63 423 118 541T283 747L339 691Z" glyph-name="parenleft" horiz-adv-x="362" unicode="("/><glyph d="M188 659T243 541T299 278Q299 134 244 16T80 -190L23 -134Q117 -49 156 46T196 278Q196 415 157 510T23 691L80 747Q188 659 243 541Z" glyph-name="parenright" horiz-adv-x="362" unicode=")"/><glyph d="M388 423L462 321L396 273L322 375L288 440L254 375L181 273L115 321L189 423L240 475L168 488L49 526L73 603L193 564L259 532L248 604L247 730H330L329 604L318 532L384 564L504 603L528 526L409 488L336 475L388 423Z" glyph-name="asterisk" horiz-adv-x="577" unicode="*"/><glyph d="M548 275H349V66H256V275H56V364H256V572H349V364H548V275Z" glyph-name="plus" horiz-adv-x="604" unicode="+"/><glyph d="M176 135T198 106T221 29Q221 -28 191 -75T103 -150L51 -106Q92 -92 120 -65T157 -3L152 -1Q144 -9 124 -9Q99 -9 80 9T60 61Q60 93 82 114T136 135Q176 135 198 106Z" glyph-name="comma" horiz-adv-x="273" unicode=","/><glyph d="M428 214H87V313H428V214Z" glyph-name="hyphen" horiz-adv-x="515" unicode="-"/><glyph d="M171 135T191 116T212 63Q212 30 192 10T137 -10Q103 -10 82 10T61 63Q61 96 81 115T137 135Q171 135 191 116Z" glyph-name="period" horiz-adv-x="273" unicode="."/><glyph d="M124 -70H24L322 725H422L124 -70Z" glyph-name="slash" horiz-adv-x="447" unicode="/"/><glyph d="M189 -10T125 76T60 330Q60 497 124 583T314 670Q439 670 504 584T569 330Q569 163 504 77T314 -10Q189 -10 125 76ZM386 81T423 143T460 330Q460 454 423 516T314 579Q169 579 169 330Q169 81 314 81Q386 81 423 143Z" glyph-name="zero" horiz-adv-x="628" unicode="0"/><glyph d="M324 660V0H219V488Q219 522 220 541Q186 508 143 484T54 450L34 543Q60 546 101 565T180 610T234 660H324Z" glyph-name="one" horiz-adv-x="418" unicode="1"/><glyph d="M70 79Q200 170 272 233T375 349T407 458Q407 511 374 544T282 577Q220 577 184 536T142 422L49 465Q59 560 122 615T288 670Q359 670 411 643T490 568T517 462Q517 367 447 281T212 90V88Q262 92 321 92H529V0H70V79Z" glyph-name="two" horiz-adv-x="587" unicode="2"/><glyph d="M361 670T409 647T483 583T508 494Q508 447 490 411T443 354T384 334V332Q422 332 453 313T504 259T523 178Q523 124 493 81T409 14T283 -10Q104 -10 46 150L144 197Q159 139 192 111T287 82Q347 82 381 111T415 190Q415 244 383 266T279 289H249V374H276Q400 374 400 476Q400 526 372 552T291 578Q238 578 207 553T166 480L68 520Q89 592 149 631T293 670Q361 670 409 647Z" glyph-name="three" horiz-adv-x="586" unicode="3"/><glyph d="M579 165H467V0H366V165H41V230L336 660H467V248H579V165ZM148 248H366V474L370 581H368Q344 530 304 471L148 248Z" glyph-name="four" horiz-adv-x="622" unicode="4"/><glyph d="M382 424T429 398T501 324T527 215Q527 108 463 49T292 -10Q202 -10 145 26T53 135L153 190Q168 136 198 109T290 81Q351 81 386 114T422 207Q422 269 389 302T294 336Q200 336 160 279L71 285L112 660H495V568H197L174 385L172 371H173Q221 424 319 424Q382 424 429 398Z" glyph-name="five" horiz-adv-x="582" unicode="5"/><glyph d="M413 670T466 637T548 529L454 484Q425 577 326 577Q278 577 241 544T184 453T163 323V305H167Q183 359 232 387T341 416Q406 416 456 390T533 317T561 205Q561 106 498 48T326 -10Q201 -10 133 81T65 330Q65 439 99 516T194 631T332 670Q413 670 466 637ZM268 327T233 294T197 206Q197 150 232 116T326 82Q387 82 421 114T455 206Q455 263 421 295T326 327Q268 327 233 294Z" glyph-name="six" horiz-adv-x="617" unicode="6"/><glyph d="M544 660V571Q422 446 368 307T314 0H205Q205 159 262 302T433 567H41V660H544Z" glyph-name="seven" horiz-adv-x="577" unicode="7"/><glyph d="M411 669T471 621T531 492Q531 441 506 403T434 345V344Q493 322 525 280T558 177Q558 91 491 41T310 -10Q196 -10 129 40T61 177Q61 237 94 280T186 344V345Q140 364 114 402T88 492Q88 574 148 621T310 669Q411 669 471 621ZM257 579T226 554T195 482Q195 437 226 412T310 386Q362 386 393 411T425 482Q425 527 394 553T310 579Q257 579 226 554ZM375 80T412 109T450 189Q450 240 412 269T310 299Q246 299 208 270T169 189Q169 138 207 109T310 80Q375 80 412 109Z" glyph-name="eight" horiz-adv-x="619" unicode="8"/><glyph d="M422 670T490 579T558 329Q558 161 491 76T296 -10Q206 -10 150 27T63 138L164 185Q180 133 208 108T296 82Q384 82 422 148T460 342V353H456Q442 295 393 268T280 240Q216 240 167 266T89 340T61 453Q61 554 124 612T297 670Q422 670 490 579ZM236 576T202 544T168 452Q168 395 202 363T297 331Q355 331 390 364T426 452Q426 508 391 542T297 576Q236 576 202 544Z" glyph-name="nine" horiz-adv-x="621" unicode="9"/><glyph d="M183 510T203 491T224 438Q224 405 204 385T149 365Q115 365 94 385T73 438Q73 471 93 490T149 510Q183 510 203 491ZM183 135T203 116T224 63Q224 30 204 10T149 -10Q115 -10 94 10T73 63Q73 96 93 115T149 135Q183 135 203 116Z" glyph-name="colon" horiz-adv-x="298" unicode=":"/><glyph d="M119 365T99 384T78 437Q78 471 98 490T153 510Q188 510 208 491T229 437Q229 404 209 385T153 365Q119 365 99 384ZM190 135T212 106T235 29Q235 -28 205 -75T117 -150L65 -106Q106 -92 134 -65T171 -3L166 -1Q158 -9 138 -9Q113 -9 94 9T74 61Q74 93 96 114T150 135Q190 135 212 106Z" glyph-name="semicolon" horiz-adv-x="298" unicode=";"/><glyph d="M549 470L147 299L549 128V21L68 244V353L549 576V470Z" glyph-name="less" horiz-adv-x="604" unicode="&lt;"/><glyph d="M540 366H64V454H540V366ZM540 161H64V249H540V161Z" glyph-name="equal" horiz-adv-x="604" unicode="="/><glyph d="M536 353V244L55 21V128L457 299L55 470V576L536 353Z" glyph-name="greater" horiz-adv-x="604" unicode="&gt;"/><glyph d="M387 670T450 625T514 497Q514 412 462 366T325 311L322 210H220L218 361Q316 373 358 401T400 482Q400 526 369 551T276 576Q216 576 179 543T136 451L37 498Q53 576 116 623T283 670Q387 670 450 625ZM305 133T325 114T345 62Q345 29 325 10T271 -9Q236 -9 216 10T196 62Q196 94 216 113T271 133Q305 133 325 114Z" glyph-name="question" horiz-adv-x="562" unicode="?"/><glyph d="M635 660T726 609T863 467T909 260Q909 178 885 119T817 28T717 -3Q666 -3 636 22T594 86Q567 45 524 23T424 1Q376 1 338 25T278 94T256 199Q256 282 288 342T373 434T487 466Q594 466 626 382L646 459H719L678 155Q676 137 676 129Q676 61 737 61Q787 61 814 111T842 260Q842 362 803 437T688 554T503 596Q390 596 307 551T178 421T133 223Q133 116 178 36T302 -86T476 -128Q553 -128 599 -112T688 -66L725 -116Q672 -153 618 -172T475 -192Q353 -192 259 -141T113 4T61 223Q61 352 116 451T271 605T503 660Q635 660 726 609ZM431 391T391 343T350 208Q350 146 378 112T457 77Q508 77 547 109T593 202L601 261Q603 279 603 288Q603 336 578 363T498 391Q431 391 391 343Z" glyph-name="at" horiz-adv-x="973" unicode="@"/><glyph d="M471 173H193L130 0H20L269 660H397L646 0H533L471 173ZM439 260L363 472L333 567H330L302 474L224 260H439Z" glyph-name="A" horiz-adv-x="665" unicode="A"/><glyph d="M98 660H358Q474 660 530 613T587 479Q587 425 556 385T469 335V334Q531 324 567 282T604 183Q604 97 541 49T362 0H98V660ZM350 376Q476 376 476 473Q476 570 350 570H203V376H350ZM367 89Q429 89 461 114T493 188Q493 236 461 261T367 287H203V89H367Z" glyph-name="B" horiz-adv-x="662" unicode="B"/><glyph d="M615 86T543 38T372 -10Q277 -10 207 31T99 149T61 330Q61 434 99 511T207 629T371 670Q470 670 537 629T635 508L534 463Q514 522 476 549T377 577Q284 577 229 512T173 330Q173 213 226 148T373 83Q437 83 480 115T543 209L645 175Q615 86 543 38Z" glyph-name="C" horiz-adv-x="684" unicode="C"/><glyph d="M487 660T573 574T659 330Q659 172 573 86T331 0H98V660H331Q487 660 573 574ZM435 91T491 153T547 330Q547 444 491 506T331 569H205V91H331Q435 91 491 153Z" glyph-name="D" horiz-adv-x="720" unicode="D"/><glyph d="M590 92V0H98V660H576V568H205V378H495V288H205V92H590Z" glyph-name="E" horiz-adv-x="636" unicode="E"/><glyph d="M205 568V377H495V284H205V0H98V660H575V568H205Z" glyph-name="F" horiz-adv-x="611" unicode="F"/><glyph d="M651 341V0H572L569 84Q540 39 489 15T367 -10Q275 -10 206 31T99 148T61 330Q61 434 100 510T210 628T375 670Q477 670 543 632T647 514L549 467Q530 521 485 549T377 577Q283 577 228 512T173 330Q173 211 225 147T379 82Q458 82 507 121T556 234V253H354V341H651Z" glyph-name="G" horiz-adv-x="724" unicode="G"/><glyph d="M639 660V0H531V288H205V0H98V660H205V380H531V660H639Z" glyph-name="H" horiz-adv-x="736" unicode="H"/><glyph d="M205 0H98V660H205V0Z" glyph-name="I" horiz-adv-x="303" unicode="I"/><glyph d="M493 234Q493 119 430 55T253 -10Q149 -10 94 39T39 175Q39 206 44 231L146 250Q142 212 142 199Q142 139 169 111T253 83Q326 83 356 124T386 254V660H493V234Z" glyph-name="J" horiz-adv-x="582" unicode="J"/><glyph d="M312 318L205 203V0H98V660H205V332L508 660H639L389 390L645 0H519L312 318Z" glyph-name="K" horiz-adv-x="667" unicode="K"/><glyph d="M569 92V0H98V660H205V92H569Z" glyph-name="L" horiz-adv-x="599" unicode="L"/><glyph d="M773 0H675V382L682 564H681L480 0H391L190 564H189L197 382V0H98V660H257L390 278L436 121H438L485 278L617 660H773V0Z" glyph-name="M" horiz-adv-x="871" unicode="M"/><glyph d="M639 0H512L257 416L193 538H192L196 426V0H98V660H224L478 245L543 122H544L540 234V660H639V0Z" glyph-name="N" horiz-adv-x="736" unicode="N"/><glyph d="M467 670T537 629T646 511T684 330Q684 226 646 149T538 31T372 -10Q277 -10 207 31T99 149T61 330Q61 434 99 511T207 629T372 670Q467 670 537 629ZM279 577T226 512T173 330Q173 213 226 148T372 83Q466 83 519 148T572 330Q572 447 519 512T372 577Q279 577 226 512Z" glyph-name="O" horiz-adv-x="745" unicode="O"/><glyph d="M459 660T521 605T584 454Q584 358 522 304T352 249H205V0H98V660H352Q459 660 521 605ZM405 340T439 368T473 454Q473 569 335 569H205V340H335Q405 340 439 368Z" glyph-name="P" horiz-adv-x="627" unicode="P"/><glyph d="M570 -101T601 -91T651 -63L682 -153Q658 -174 616 -186T529 -198Q441 -198 387 -152T329 -8Q204 6 133 95T61 330Q61 434 99 511T207 629T372 670Q467 670 537 629T646 511T684 330Q684 184 612 95T413 -8Q418 -62 448 -81T532 -101Q570 -101 601 -91ZM173 213T226 148T372 83Q466 83 519 148T572 330Q572 447 519 512T372 577Q279 577 226 512T173 330Q173 213 226 148Z" glyph-name="Q" horiz-adv-x="745" unicode="Q"/><glyph d="M346 264H204V0H98V660H367Q474 660 536 608T598 462Q598 391 562 344T458 276L637 0H514L346 264ZM204 353H358Q423 353 455 379T487 461Q487 516 455 542T358 569H204V353Z" glyph-name="R" horiz-adv-x="672" unicode="R"/><glyph d="M414 670T478 637T587 536L506 463Q478 523 436 550T324 577Q255 577 217 550T179 479Q179 439 216 416T348 375Q437 359 489 335T566 274T590 183Q590 125 557 81T465 14T327 -10Q126 -10 43 124L118 199Q150 139 200 111T326 83Q397 83 437 107T478 177Q478 213 442 235T314 274Q223 291 169 316T91 378T66 468Q66 524 97 570T186 643T323 670Q414 670 478 637Z" glyph-name="S" horiz-adv-x="642" unicode="S"/><glyph d="M589 568H363V0H256V568H30V660H589V568Z" glyph-name="T" horiz-adv-x="619" unicode="T"/><glyph d="M629 253Q629 123 560 57T359 -10Q227 -10 158 56T89 253V660H197V266Q197 172 236 128T359 83Q442 83 481 127T521 266V660H629V253Z" glyph-name="U" horiz-adv-x="718" unicode="U"/><glyph d="M392 0H267L22 660H136L290 221L330 90L370 220L524 660H637L392 0Z" glyph-name="V" horiz-adv-x="659" unicode="V"/><glyph d="M349 0H222L28 660H144L288 85L433 660H543L689 84L834 660H944L751 0H625L520 396L487 548H486L453 396L349 0Z" glyph-name="W" horiz-adv-x="972" unicode="W"/><glyph d="M468 0L306 257L144 0H21L250 335L39 660H166L318 415L470 660H586L373 339L595 0H468Z" glyph-name="X" horiz-adv-x="620" unicode="X"/><glyph d="M352 253V0H245V253L10 660H129L247 448L299 349L351 448L468 660H588L352 253Z" glyph-name="Y" horiz-adv-x="597" unicode="Y"/><glyph d="M583 91V0H50V87L449 569H59V660H571V573L172 91H583Z" glyph-name="Z" horiz-adv-x="631" unicode="Z"/><glyph d="M183 640V-83H330V-168H86V725H330V640H183Z" glyph-name="bracketleft" horiz-adv-x="361" unicode="["/><glyph d="M125 725L423 -70H323L25 725H125Z" glyph-name="backslash" horiz-adv-x="447" unicode="\"/><glyph d="M275 -168H31V-83H178V640H31V725H275V-168Z" glyph-name="bracketright" horiz-adv-x="361" unicode="]"/><glyph d="M448 355L288 649L128 355H26L240 728H336L549 355H448Z" glyph-name="asciicircum" horiz-adv-x="576" unicode="^"/><glyph d="M539 -181H0V-88H539V-181Z" glyph-name="underscore" horiz-adv-x="539" unicode="_"/><glyph d="M299 578H217L118 746H226L299 578Z" glyph-name="grave" horiz-adv-x="500" unicode="`"/><glyph d="M537 70T552 74L545 2Q518 -10 483 -10Q440 -10 415 7T381 64Q358 29 313 10T212 -10Q139 -10 94 24T49 121Q49 180 98 220T244 278L371 300V327Q371 373 344 399T269 426Q170 426 140 336L57 380Q75 440 130 475T267 510Q364 510 421 465T478 333V107Q478 88 486 79T515 70Q537 70 552 74ZM289 71T330 97T371 166V226L262 204Q210 194 185 176T160 128Q160 100 179 86T235 71Q289 71 330 97Z" glyph-name="a" horiz-adv-x="570" unicode="a"/><glyph d="M455 510T514 441T573 249Q573 127 514 59T352 -10Q293 -10 249 18T182 93L177 0H83V725H190V420Q213 462 255 486T352 510Q455 510 514 441ZM393 76T429 122T466 250Q466 332 430 377T328 423Q267 423 231 382T190 269V231Q194 158 230 117T328 76Q393 76 429 122Z" glyph-name="b" horiz-adv-x="629" unicode="b"/><glyph d="M467 510T520 370L420 330Q394 425 303 425Q236 425 199 379T162 249Q162 165 199 120T303 75Q354 75 385 100T426 172L524 139Q502 69 446 30T305 -10Q187 -10 121 59T54 250Q54 372 120 441T303 510Q467 510 520 370Z" glyph-name="c" horiz-adv-x="566" unicode="c"/><glyph d="M546 725V0H452L446 89Q424 44 380 17T278 -10Q175 -10 116 58T56 249Q56 371 115 440T278 510Q333 510 375 486T439 419V725H546ZM365 76T402 121T439 244V256Q439 334 402 378T302 423Q237 423 201 378T164 250Q164 168 200 122T302 76Q365 76 402 121Z" glyph-name="d" horiz-adv-x="629" unicode="d"/><glyph d="M530 236T526 210H160Q169 144 207 110T305 75Q354 75 386 92T431 143L520 106Q464 -10 305 -10Q187 -10 121 59T54 250Q54 373 118 441T298 510Q408 510 469 443T530 265Q530 236 526 210ZM240 425T205 391T160 292H430Q422 355 388 390T298 425Q240 425 205 391Z" glyph-name="e" unicode="e"/><glyph d="M225 500H387V416H228V0H121V416H27V500H121V572Q121 648 167 690T296 732Q326 732 351 726T390 708L370 630Q347 645 313 645Q225 645 225 564V500Z" glyph-name="f" horiz-adv-x="400" unicode="f"/><glyph d="M450 78T492 44T534 -50Q534 -101 501 -138T409 -195T277 -215Q158 -215 99 -180T39 -87Q39 -53 62 -28T128 9Q96 24 77 47T58 104Q58 177 136 204Q98 226 79 261T59 341Q59 391 86 429T162 489T276 510Q331 510 377 494Q391 549 427 577T524 605L542 522Q494 523 465 510T424 471Q457 448 475 415T493 341Q493 264 434 218T276 172Q230 172 193 181Q168 175 157 162T145 126Q145 103 161 91T207 78H374Q450 78 492 44ZM230 435T199 409T168 341Q168 299 199 273T276 246Q323 246 353 272T384 341Q384 383 354 409T276 435Q230 435 199 409ZM360 -135T401 -114T442 -62Q442 -37 422 -24T355 -11H220Q175 -11 153 -25T130 -64Q130 -98 169 -116T287 -135Q360 -135 401 -114Z" glyph-name="g" horiz-adv-x="554" unicode="g"/><glyph d="M435 510T487 462T540 324V0H433V290Q433 422 326 422Q270 422 230 383T190 264V0H83V725H190V420Q215 466 256 488T352 510Q435 510 487 462Z" glyph-name="h" horiz-adv-x="619" unicode="h"/><glyph d="M103 584T84 601T65 651Q65 683 84 700T137 717Q171 717 189 700T208 651Q208 619 190 602T137 584Q103 584 84 601ZM190 0H83V500H190V0Z" glyph-name="i" horiz-adv-x="274" unicode="i"/><glyph d="M169 717T188 699T208 651Q208 621 189 603T137 584Q104 584 85 602T65 651Q65 681 84 699T137 717Q169 717 188 699ZM190 -44Q190 -133 144 -174T26 -215Q-39 -215 -84 -182L-65 -96Q-31 -124 12 -124Q46 -124 64 -103T83 -34V500H190V-44Z" glyph-name="j" horiz-adv-x="273" unicode="j"/><glyph d="M289 235L190 133V0H83V725H190V255L429 500H555L364 304L567 0H443L289 235Z" glyph-name="k" horiz-adv-x="583" unicode="k"/><glyph d="M187 146Q187 109 198 95T239 80Q258 80 271 82T305 93L293 7Q259 -10 210 -10Q143 -10 112 24T80 131V725H187V146Z" glyph-name="l" horiz-adv-x="312" unicode="l"/><glyph d="M736 510T778 490T845 427T870 324V0H763V307Q763 366 735 394T660 422Q605 422 568 382T530 272V0H423V307Q423 366 395 394T320 422Q288 422 258 406T209 354T190 266V0H83V500H178L183 417Q208 463 251 486T345 510Q401 510 446 485T514 410Q537 459 584 484T686 510Q736 510 778 490Z" glyph-name="m" horiz-adv-x="949" unicode="m"/><glyph d="M435 510T487 462T540 324V0H433V290Q433 422 326 422Q270 422 230 384T190 265V0H83V500H178L183 417Q208 464 252 487T352 510Q435 510 487 462Z" glyph-name="n" horiz-adv-x="619" unicode="n"/><glyph d="M420 510T486 441T552 250Q552 128 486 59T303 -10Q186 -10 120 59T54 250Q54 372 120 441T303 510Q420 510 486 441ZM235 426T199 381T162 250Q162 165 198 120T303 74Q371 74 408 120T445 250Q445 334 408 380T303 426Q235 426 199 381Z" glyph-name="o" horiz-adv-x="606" unicode="o"/><glyph d="M455 510T514 442T573 251Q573 129 514 60T352 -10Q298 -10 256 14T190 80V-210H83V500H177L182 407Q204 454 248 482T352 510Q455 510 514 442ZM393 77T429 122T466 250Q466 332 430 378T328 424Q267 424 231 383T190 269V231Q194 159 230 118T328 77Q393 77 429 122Z" glyph-name="p" horiz-adv-x="629" unicode="p"/><glyph d="M547 500V-210H440V81Q417 39 375 15T279 -10Q176 -10 117 59T57 251Q57 373 116 441T278 510Q337 510 381 483T448 408L453 500H547ZM365 77T402 121T440 244V256Q440 334 403 379T302 424Q237 424 201 378T164 250Q164 168 200 123T302 77Q365 77 402 121Z" glyph-name="q" horiz-adv-x="630" unicode="q"/><glyph d="M376 510T396 500L379 402Q356 415 316 415Q284 415 256 398T209 347T190 265V0H83V500H174L183 410Q225 510 341 510Q376 510 396 500Z" glyph-name="r" horiz-adv-x="414" unicode="r"/><glyph d="M188 -10T130 16T41 95L113 157Q132 114 172 94T268 74Q319 74 347 90T375 134Q375 158 349 172T259 200Q148 221 103 256T58 355Q58 396 83 431T155 488T268 510Q351 510 401 483T478 397L402 341Q384 385 352 405T269 426Q224 426 195 408T165 365Q165 338 191 322T288 293Q394 274 438 239T482 141Q482 74 424 32T264 -10Q188 -10 130 16Z" glyph-name="s" horiz-adv-x="529" unicode="s"/><glyph d="M407 33Q383 13 349 2T274 -10Q205 -10 164 24T121 132V416H26V500H121V617L228 647V500H403V416H228V150Q228 114 247 97T301 79Q347 79 382 111L407 33Z" glyph-name="t" horiz-adv-x="424" unicode="t"/><glyph d="M536 500V0H441L437 81Q386 -10 259 -10Q178 -10 129 34T79 171V500H186V199Q186 133 212 106T289 78Q350 78 389 116T429 230V500H536Z" glyph-name="u" horiz-adv-x="619" unicode="u"/><glyph d="M524 500L325 0H208L8 500H126L267 87L412 500H524Z" glyph-name="v" horiz-adv-x="532" unicode="v"/><glyph d="M843 500L676 0H559L433 378L313 0H196L29 500H145L258 100L383 500H489L613 100L727 500H843Z" glyph-name="w" horiz-adv-x="871" unicode="w"/><glyph d="M399 0L273 188L143 0H22L210 252L32 500H160L280 319L399 500H522L343 255L525 0H399Z" glyph-name="x" horiz-adv-x="550" unicode="x"/><glyph d="M314 -59Q281 -145 239 -180T129 -215Q90 -215 62 -206T11 -175L42 -93Q72 -129 124 -129Q154 -129 174 -114T211 -57L233 -3L181 121L25 500H145L255 186L284 92L318 195L422 500H533L314 -59Z" glyph-name="y" horiz-adv-x="546" unicode="y"/><glyph d="M51 74L294 356L354 418L268 416H53V500H472V426L230 144L170 82L265 84H481V0H51V74Z" glyph-name="z" horiz-adv-x="528" unicode="z"/><glyph d="M237 -82T260 -97T336 -112L325 -190Q228 -190 186 -157T144 -52V133Q144 189 119 213T32 237V319Q93 319 118 343T144 423V609Q144 680 186 713T325 747L336 669Q284 669 261 654T237 607V408Q237 306 126 278Q237 252 237 149V-50Q237 -82 260 -97Z" glyph-name="braceleft" horiz-adv-x="372" unicode="{"/><glyph d="M180 -168H86V725H180V-168Z" glyph-name="bar" horiz-adv-x="266" unicode="|"/><glyph d="M228 367T253 343T340 319V237Q279 237 254 213T228 133V-52Q228 -123 186 -156T47 -190L36 -112Q88 -112 111 -98T134 -50V149Q134 252 245 278Q134 306 134 408V607Q134 639 111 654T36 669L47 747Q144 747 186 714T228 609V423Q228 367 253 343Z" glyph-name="braceright" horiz-adv-x="372" unicode="}"/><glyph d="M509 316T474 275T375 234Q341 234 316 245T263 276Q239 291 225 298T194 305Q147 305 136 235H43Q54 398 183 398Q216 398 239 388T294 357Q316 342 331 335T364 327Q410 327 421 396H514Q509 316 474 275Z" glyph-name="asciitilde" horiz-adv-x="557" unicode="~"/><glyph glyph-name="uni00A0" horiz-adv-x="325"/><glyph d="M103 368T83 387T63 439Q63 471 83 490T137 509Q172 509 192 490T212 439Q212 407 192 388T137 368Q103 368 83 387ZM81 104L95 290H179L193 104V-160H81V104Z" glyph-name="exclamdown" horiz-adv-x="274" unicode="¡"/><glyph d="M511 76T463 37T342 -9V-100H268V-7Q170 5 116 72T61 250Q61 361 115 428T268 508V600H342V509Q414 502 459 466T524 370L433 331Q410 414 342 429V70Q419 85 440 170L528 140Q511 76 463 37ZM158 174T186 129T268 72V428Q214 416 186 371T158 249Q158 174 186 129Z" glyph-name="cent" horiz-adv-x="570" unicode="¢"/><glyph d="M594 81T558 36T454 -10Q412 -10 377 5T299 48Q244 -10 158 -10Q107 -10 76 14T45 78Q45 117 78 142T166 168Q224 168 272 144Q274 160 274 170Q274 196 266 220T240 272H76V347H184Q156 384 145 411T134 469Q134 526 161 572T238 644T353 670Q438 670 490 630T563 508L474 463Q459 524 430 553T349 582Q295 582 263 554T230 478Q230 452 241 427T284 356L291 347H481V272H334Q351 230 351 185Q351 142 335 106Q363 88 386 79T437 69Q478 69 496 91T514 163L590 160Q594 81 558 36ZM218 47T247 82Q201 107 166 107Q122 107 122 78Q122 63 134 55T167 47Q218 47 247 82Z" glyph-name="sterling" horiz-adv-x="625" unicode="£"/><glyph d="M541 263T508 210L600 124L534 59L445 150Q395 119 330 119Q265 119 212 151L125 59L60 124L151 212Q118 264 118 329Q118 396 152 447L60 533L125 598L214 507Q264 538 330 538Q397 538 448 507L534 598L600 533L510 445Q541 394 541 329Q541 263 508 210ZM381 205T413 240T446 329Q446 383 414 417T330 452Q279 452 246 418T213 329Q213 275 246 240T330 205Q381 205 413 240Z" glyph-name="currency" horiz-adv-x="659" unicode="¤"/><glyph d="M434 299H561V240H368V167H561V111H368V0H270V111H78V167H270V240H78V299H203L252 295L30 660H148L271 428L318 328H320L367 429L490 660H608L385 295L434 299Z" glyph-name="yen" horiz-adv-x="637" unicode="¥"/><glyph d="M177 357H83V725H177V357ZM177 -168H83V200H177V-168Z" glyph-name="brokenbar" horiz-adv-x="260" unicode="¦"/><glyph d="M579 227T556 193T493 134Q519 99 519 46Q519 1 493 -34T417 -90T303 -110Q224 -110 172 -85T83 -10L151 48Q174 9 210 -9T302 -28Q361 -28 393 -11T425 37Q425 75 389 95T260 128Q135 143 82 179T29 285Q29 330 52 365T116 424Q90 457 90 511Q90 556 116 592T193 649T311 670Q392 670 441 645T526 570L460 513Q434 551 400 569T310 588Q250 588 217 570T184 521Q184 482 219 462T348 430Q473 415 526 379T579 273Q579 227 556 193ZM122 263T155 245T277 217Q370 206 421 185Q487 213 487 261Q487 295 453 312T331 340Q238 351 187 372Q122 344 122 297Q122 263 155 245Z" glyph-name="section" horiz-adv-x="605" unicode="§"/><glyph d="M181 700T199 683T217 637Q217 608 199 591T151 574Q122 574 104 591T86 637Q86 666 104 683T151 700Q181 700 199 683ZM383 700T401 683T419 637Q419 608 401 591T353 574Q323 574 306 591T288 637Q288 666 305 683T353 700Q383 700 401 683Z" glyph-name="dieresis" horiz-adv-x="500" unicode="¨"/><glyph d="M506 670T583 628T703 509T746 330Q746 228 704 151T584 32T403 -10Q300 -10 223 32T103 151T60 330Q60 432 102 509T222 628T403 670Q506 670 583 628ZM323 599T263 566T169 472T136 330Q136 249 169 188T262 94T403 61Q483 61 543 94T636 188T669 330Q669 411 637 472T544 566T403 599Q323 599 263 566ZM528 515T570 415L500 381Q488 410 466 424T409 438Q362 438 335 409T308 328Q308 276 335 247T409 218Q483 218 506 279L572 250Q551 196 511 169T407 142Q323 142 275 192T226 328Q226 415 274 465T407 515Q528 515 570 415Z" glyph-name="copyright" horiz-adv-x="806" unicode="©"/><glyph d="M372 378T379 382L373 331Q353 321 329 321Q300 321 281 334T256 372Q238 348 206 335T130 321Q78 321 49 342T20 404Q20 446 51 472T152 511L241 527V540Q241 569 224 585T175 601Q144 601 123 588T91 543L26 570Q36 614 75 639T179 664Q252 664 289 633T326 541V409Q326 378 356 378Q372 378 379 382ZM189 381T215 398T241 442V480L179 467Q140 459 123 448T106 416Q106 397 119 389T158 381Q189 381 215 398ZM28 250H362V186H28V250Z" glyph-name="ordfeminine" horiz-adv-x="399" unicode="ª"/><glyph d="M151 265L277 69H172L46 265L172 461H277L151 265ZM348 265L474 69H369L243 265L369 461H474L348 265Z" glyph-name="guillemotleft" horiz-adv-x="521" unicode="«"/><glyph d="M545 364V121H448V275H59V364H545Z" glyph-name="logicalnot" horiz-adv-x="604" unicode="¬"/><glyph d="M428 214H87V313H428V214Z" glyph-name="uni00AD" horiz-adv-x="515" unicode="­"/><glyph d="M506 670T583 628T703 509T746 330Q746 228 704 151T584 32T403 -10Q300 -10 223 32T103 151T60 330Q60 432 102 509T222 628T403 670Q506 670 583 628ZM483 61T543 94T636 188T669 330Q669 411 637 472T544 566T403 599Q323 599 263 566T169 472T136 330Q136 249 169 188T262 94T403 61Q483 61 543 94ZM566 353T543 324T479 284L574 146H484L403 277H347V146H270V514H429Q490 514 528 482T566 395Q566 353 543 324ZM347 333H421Q488 333 488 393Q488 453 421 453H347V333Z" glyph-name="registered" horiz-adv-x="806" unicode="®"/><glyph d="M428 588H72V666H428V588Z" glyph-name="overscore" horiz-adv-x="500" unicode="¯"/><glyph d="M155 327T106 375T56 499Q56 575 106 622T235 670Q315 670 365 623T415 499Q415 422 365 375T235 327Q155 327 106 375ZM276 406T302 432T329 499Q329 540 303 566T235 592Q195 592 169 566T142 499Q142 458 168 432T235 406Q276 406 302 432Z" glyph-name="degree" horiz-adv-x="471" unicode="°"/><glyph d="M548 447V359H347V163H258V359H56V447H258V644H347V447H548ZM56 87H548V0H56V87Z" glyph-name="plusminus" horiz-adv-x="604" unicode="±"/><glyph d="M36 390Q90 425 127 452Q197 505 222 537T248 601Q248 630 231 648T180 666Q145 666 125 643T104 578L24 603Q27 665 70 700T183 735Q259 735 298 698T338 607Q338 565 307 524T208 436Q193 426 148 400V399Q193 402 220 402H346V333H36V390Z" glyph-name="uni00B2" horiz-adv-x="373" unicode="²"/><glyph d="M251 735T289 706T327 626Q327 584 303 560T247 533V531Q283 530 309 507T336 442Q336 390 294 359T182 327Q52 327 20 424L101 458Q110 394 179 394Q211 394 229 410T248 453Q248 503 179 503H155V557H176Q207 557 223 571T239 611Q239 638 224 652T179 666Q119 666 109 609L31 636Q43 685 83 710T183 735Q251 735 289 706Z" glyph-name="uni00B3" horiz-adv-x="367" unicode="³"/><glyph d="M382 746L283 578H201L274 746H382Z" glyph-name="acute" horiz-adv-x="500" unicode="´"/><glyph d="M535 500V0H445L438 85Q390 -10 265 -10Q219 -10 185 12V-210H78V500H185V199Q185 133 211 106T289 78Q347 78 384 108T428 194V500H535Z" glyph-name="uni00B5" horiz-adv-x="613" unicode="µ"/><glyph d="M584 -100H494V574H371V-100H279V238Q166 239 103 294T39 448Q39 549 106 604T300 660H584V-100Z" glyph-name="paragraph" horiz-adv-x="668" unicode="¶"/><glyph d="M155 427T175 408T196 354Q196 321 176 302T120 282Q86 282 66 301T45 354Q45 388 65 407T120 427Q155 427 175 408Z" glyph-name="middot" horiz-adv-x="240" unicode="·"/><glyph d="M240 31Q306 15 342 -22T378 -105Q378 -153 344 -184T254 -215Q215 -215 188 -206T139 -178L172 -116Q185 -129 203 -137T242 -146Q266 -146 282 -131T298 -90Q298 -60 277 -40T197 3L240 31Z" glyph-name="cedilla" horiz-adv-x="500" unicode="¸"/><glyph d="M209 730V333H123V574Q123 604 126 643Q69 595 13 588V661Q43 666 81 687T134 730H209Z" glyph-name="uni00B9" horiz-adv-x="259" unicode="¹"/><glyph d="M110 321T68 366T25 492Q25 574 67 619T189 664Q269 664 311 619T354 492Q354 411 312 366T189 321Q110 321 68 366ZM267 384T267 492Q267 602 189 602Q112 602 112 492Q112 384 189 384Q267 384 267 492ZM36 250H343V186H36V250Z" glyph-name="ordmasculine" horiz-adv-x="379" unicode="º"/><glyph d="M151 461L277 265L151 69H46L172 265L46 461H151ZM348 461L474 265L348 69H243L369 265L243 461H348Z" glyph-name="guillemotright" horiz-adv-x="520" unicode="»"/><glyph d="M209 665V268H123V509Q123 539 126 578Q71 530 13 523V596Q43 601 81 622T134 665H209ZM578 660H669L192 0H101L578 660ZM798 91H731V-4H657V91H458V134L633 393H731V150H798V91ZM657 150V253Q657 294 660 331H657Q641 299 626 275L537 150H657Z" glyph-name="onequarter" horiz-adv-x="817" unicode="¼"/><glyph d="M209 665V268H123V509Q123 539 126 578Q71 530 13 523V596Q43 601 81 622T134 665H209ZM578 660H669L192 0H101L578 660ZM547 53Q601 88 638 115Q708 168 733 200T759 264Q759 293 742 311T691 329Q656 329 636 306T615 241L535 266Q538 328 581 363T694 398Q770 398 809 361T849 270Q849 228 818 187T719 99Q704 89 659 63V62Q704 65 731 65H857V-4H547V53Z" glyph-name="onehalf" horiz-adv-x="884" unicode="½"/><glyph d="M251 670T289 641T327 561Q327 519 303 495T247 468V466Q283 465 309 442T336 377Q336 325 294 294T182 262Q52 262 20 359L101 393Q110 329 179 329Q211 329 229 345T248 388Q248 438 179 438H155V492H176Q207 492 223 506T239 546Q239 573 224 587T179 601Q119 601 109 544L31 571Q43 620 83 645T183 670Q251 670 289 641ZM686 660H777L300 0H209L686 660ZM906 91H839V-4H765V91H566V134L741 393H839V150H906V91ZM765 150V253Q765 294 768 331H765Q749 299 734 275L645 150H765Z" glyph-name="threequarters" horiz-adv-x="925" unicode="¾"/><glyph d="M254 367T234 386T214 438Q214 471 234 490T288 509Q323 509 343 490T363 438Q363 406 343 387T288 367Q254 367 234 386ZM172 -170T109 -124T45 4Q45 89 97 135T234 190L237 290H339L342 140Q244 127 202 99T159 18Q159 -26 190 -51T283 -76Q342 -76 379 -43T423 49L522 2Q506 -76 443 -123T276 -170Q172 -170 109 -124Z" glyph-name="questiondown" horiz-adv-x="558" unicode="¿"/><glyph d="M290 737L202 888H316L372 737H290ZM471 173H193L130 0H20L269 660H397L646 0H533L471 173ZM439 260L363 472L333 567H330L302 474L224 260H439Z" glyph-name="Agrave" horiz-adv-x="665" unicode="À"/><glyph d="M364 737H282L338 888H452L364 737ZM471 173H193L130 0H20L269 660H397L646 0H533L471 173ZM439 260L363 472L333 567H330L302 474L224 260H439Z" glyph-name="Aacute" horiz-adv-x="665" unicode="Á"/><glyph d="M253 731H164L277 898H389L502 731H413L333 838L253 731ZM471 173H193L130 0H20L269 660H397L646 0H533L471 173ZM439 260L363 472L333 567H330L302 474L224 260H439Z" glyph-name="Acircumflex" horiz-adv-x="665" unicode="Â"/><glyph d="M471 173H193L130 0H20L269 660H397L646 0H533L471 173ZM439 260L363 472L333 567H330L302 474L224 260H439ZM509 736T400 736Q371 736 352 746T311 776Q294 790 285 795T264 801Q245 801 235 785T219 735H146Q155 877 265 877Q293 877 311 867T353 837Q370 823 379 818T399 812Q419 812 429 828T445 877H518Q509 736 400 736Z" glyph-name="Atilde" horiz-adv-x="665" unicode="Ã"/><glyph d="M471 173H193L130 0H20L269 660H397L646 0H533L471 173ZM439 260L363 472L333 567H330L302 474L224 260H439ZM261 860T279 843T297 797Q297 768 279 751T231 734Q202 734 184 751T166 797Q166 826 184 843T231 860Q261 860 279 843ZM463 860T481 843T499 797Q499 768 481 751T433 734Q403 734 386 751T368 797Q368 826 385 843T433 860Q463 860 481 843Z" glyph-name="Adieresis" horiz-adv-x="665" unicode="Ä"/><glyph d="M471 173H193L130 0H20L259 630Q231 645 216 671T200 733Q200 787 237 821T334 855Q394 855 430 821T466 733Q466 698 451 672T407 630L646 0H533L471 173ZM303 797T284 779T265 732Q265 703 284 685T333 667Q362 667 381 685T400 732Q400 760 381 778T333 797Q303 797 284 779ZM439 260L363 472L333 567H330L302 474L224 260H439Z" glyph-name="Aring" horiz-adv-x="665" unicode="Å"/><glyph d="M899 90V0H442V208H223L115 0H3L358 660H885V570H546V378H804V289H546V90H899ZM442 294V571H411L268 294H442Z" glyph-name="AE" horiz-adv-x="945" unicode="Æ"/><glyph d="M620 100T565 54T432 -5Q460 -25 474 -51T489 -105Q489 -153 455 -184T365 -215Q326 -215 299 -206T250 -178L283 -116Q296 -129 314 -137T353 -146Q377 -146 393 -131T409 -90Q409 -64 393 -46T335 -8Q251 -1 189 42T94 159T61 330Q61 434 99 511T207 629T371 670Q470 670 537 629T635 508L534 463Q514 522 476 549T377 577Q284 577 229 512T173 330Q173 213 226 148T373 83Q437 83 480 115T543 209L645 175Q620 100 565 54Z" glyph-name="Ccedilla" horiz-adv-x="684" unicode="Ç"/><glyph d="M309 737L221 888H335L391 737H309ZM590 92V0H98V660H576V568H205V378H495V288H205V92H590Z" glyph-name="Egrave" horiz-adv-x="636" unicode="È"/><glyph d="M366 737H284L340 888H454L366 737ZM590 92V0H98V660H576V568H205V378H495V288H205V92H590Z" glyph-name="Eacute" horiz-adv-x="636" unicode="É"/><glyph d="M254 731H165L278 898H390L503 731H414L334 838L254 731ZM590 92V0H98V660H576V568H205V378H495V288H205V92H590Z" glyph-name="Ecircumflex" horiz-adv-x="636" unicode="Ê"/><glyph d="M590 92V0H98V660H576V568H205V378H495V288H205V92H590ZM263 860T281 843T299 797Q299 768 281 751T233 734Q204 734 186 751T168 797Q168 826 186 843T233 860Q263 860 281 843ZM465 860T483 843T501 797Q501 768 483 751T435 734Q405 734 388 751T370 797Q370 826 387 843T435 860Q465 860 483 843Z" glyph-name="Edieresis" horiz-adv-x="636" unicode="Ë"/><glyph d="M190 737H108L20 888H134L190 737ZM205 0H98V660H205V0Z" glyph-name="Igrave" horiz-adv-x="303" unicode="Ì"/><glyph d="M271 888L183 737H101L157 888H271ZM205 0H98V660H205V0Z" glyph-name="Iacute" horiz-adv-x="303" unicode="Í"/><glyph d="M231 731L151 838L71 731H-18L95 898H207L320 731H231ZM205 0H98V660H205V0Z" glyph-name="Icircumflex" horiz-adv-x="303" unicode="Î"/><glyph d="M90 860T107 843T125 797Q125 768 108 751T60 734Q31 734 14 751T-4 797Q-4 826 13 843T60 860Q90 860 107 843ZM271 860T289 843T307 797Q307 769 289 752T242 734Q213 734 195 751T177 797Q177 826 195 843T242 860Q271 860 289 843ZM205 0H98V660H205V0Z" glyph-name="Idieresis" horiz-adv-x="303" unicode="Ï"/><glyph d="M505 660T591 574T677 330Q677 172 591 86T349 0H116V294H22V370H116V660H349Q505 660 591 574ZM454 91T510 153T566 330Q566 444 510 506T349 569H223V370H400V294H223V91H349Q454 91 510 153Z" glyph-name="Eth" horiz-adv-x="738" unicode="Ð"/><glyph d="M639 0H512L257 416L193 538H192L196 426V0H98V660H224L478 245L543 122H544L540 234V660H639V0ZM548 736T439 736Q410 736 391 746T350 776Q333 790 324 795T303 801Q284 801 274 785T258 735H185Q194 877 304 877Q332 877 350 867T392 837Q409 823 418 818T438 812Q458 812 468 828T484 877H557Q548 736 439 736Z" glyph-name="Ntilde" horiz-adv-x="736" unicode="Ñ"/><glyph d="M411 737H329L241 888H355L411 737ZM467 670T537 629T646 511T684 330Q684 226 646 149T538 31T372 -10Q277 -10 207 31T99 149T61 330Q61 434 99 511T207 629T372 670Q467 670 537 629ZM279 577T226 512T173 330Q173 213 226 148T372 83Q466 83 519 148T572 330Q572 447 519 512T372 577Q279 577 226 512Z" glyph-name="Ograve" horiz-adv-x="745" unicode="Ò"/><glyph d="M492 888L404 737H322L378 888H492ZM467 670T537 629T646 511T684 330Q684 226 646 149T538 31T372 -10Q277 -10 207 31T99 149T61 330Q61 434 99 511T207 629T372 670Q467 670 537 629ZM279 577T226 512T173 330Q173 213 226 148T372 83Q466 83 519 148T572 330Q572 447 519 512T372 577Q279 577 226 512Z" glyph-name="Oacute" horiz-adv-x="745" unicode="Ó"/><glyph d="M452 731L372 838L292 731H203L316 898H428L541 731H452ZM467 670T537 629T646 511T684 330Q684 226 646 149T538 31T372 -10Q277 -10 207 31T99 149T61 330Q61 434 99 511T207 629T372 670Q467 670 537 629ZM279 577T226 512T173 330Q173 213 226 148T372 83Q466 83 519 148T572 330Q572 447 519 512T372 577Q279 577 226 512Z" glyph-name="Ocircumflex" horiz-adv-x="745" unicode="Ô"/><glyph d="M467 670T537 629T646 511T684 330Q684 226 646 149T538 31T372 -10Q277 -10 207 31T99 149T61 330Q61 434 99 511T207 629T372 670Q467 670 537 629ZM279 577T226 512T173 330Q173 213 226 148T372 83Q466 83 519 148T572 330Q572 447 519 512T372 577Q279 577 226 512ZM549 736T440 736Q411 736 392 746T351 776Q334 790 325 795T304 801Q285 801 275 785T259 735H186Q195 877 305 877Q333 877 351 867T393 837Q410 823 419 818T439 812Q459 812 469 828T485 877H558Q549 736 440 736Z" glyph-name="Otilde" horiz-adv-x="745" unicode="Õ"/><glyph d="M467 670T537 629T646 511T684 330Q684 226 646 149T538 31T372 -10Q277 -10 207 31T99 149T61 330Q61 434 99 511T207 629T372 670Q467 670 537 629ZM279 577T226 512T173 330Q173 213 226 148T372 83Q466 83 519 148T572 330Q572 447 519 512T372 577Q279 577 226 512ZM301 860T319 843T337 797Q337 768 319 751T271 734Q242 734 224 751T206 797Q206 826 224 843T271 860Q301 860 319 843ZM503 860T521 843T539 797Q539 768 521 751T473 734Q443 734 426 751T408 797Q408 826 425 843T473 860Q503 860 521 843Z" glyph-name="Odieresis" horiz-adv-x="745" unicode="Ö"/><glyph d="M366 320L530 156L466 91L302 255L138 91L73 156L237 320L73 484L138 549L302 385L466 549L530 484L366 320Z" glyph-name="multiply" horiz-adv-x="604" unicode="×"/><glyph d="M638 540T661 475T684 330Q684 226 646 149T538 31T372 -10Q275 -10 204 33L156 -34H81L155 71Q110 116 86 182T61 330Q61 434 99 511T207 629T372 670Q474 670 547 623L589 682H664L595 584Q638 540 661 475ZM279 577T226 512T173 330Q173 222 218 157L488 542Q441 577 372 577Q279 577 226 512ZM466 83T519 148T572 330Q572 434 531 496L264 113Q309 83 372 83Q466 83 519 148Z" glyph-name="Oslash" horiz-adv-x="745" unicode="Ø"/><glyph d="M398 737H316L228 888H342L398 737ZM629 253Q629 123 560 57T359 -10Q227 -10 158 56T89 253V660H197V266Q197 172 236 128T359 83Q442 83 481 127T521 266V660H629V253Z" glyph-name="Ugrave" horiz-adv-x="718" unicode="Ù"/><glyph d="M478 888L390 737H308L364 888H478ZM629 253Q629 123 560 57T359 -10Q227 -10 158 56T89 253V660H197V266Q197 172 236 128T359 83Q442 83 481 127T521 266V660H629V253Z" glyph-name="Uacute" horiz-adv-x="718" unicode="Ú"/><glyph d="M439 731L359 838L279 731H190L303 898H415L528 731H439ZM629 253Q629 123 560 57T359 -10Q227 -10 158 56T89 253V660H197V266Q197 172 236 128T359 83Q442 83 481 127T521 266V660H629V253Z" glyph-name="Ucircumflex" horiz-adv-x="718" unicode="Û"/><glyph d="M629 253Q629 123 560 57T359 -10Q227 -10 158 56T89 253V660H197V266Q197 172 236 128T359 83Q442 83 481 127T521 266V660H629V253ZM287 860T305 843T323 797Q323 768 305 751T257 734Q228 734 210 751T192 797Q192 826 210 843T257 860Q287 860 305 843ZM489 860T507 843T525 797Q525 768 507 751T459 734Q429 734 412 751T394 797Q394 826 411 843T459 860Q489 860 507 843Z" glyph-name="Udieresis" horiz-adv-x="718" unicode="Ü"/><glyph d="M418 888L330 737H248L304 888H418ZM352 253V0H245V253L10 660H129L247 448L299 349L351 448L468 660H588L352 253Z" glyph-name="Yacute" horiz-adv-x="597" unicode="Ý"/><glyph d="M462 547T525 493T589 337Q589 235 526 181T339 127H205V0H98V660H205V547H339Q462 547 525 493ZM409 218T444 247T478 337Q479 397 444 426T338 456H205V218H338Q409 218 444 247Z" glyph-name="Thorn" horiz-adv-x="639" unicode="Þ"/><glyph d="M454 383T495 356T556 286T576 193Q576 139 551 93T476 18T355 -10Q321 -10 291 -1T245 23L269 102Q297 78 349 78Q408 78 440 113T473 206Q473 268 434 300T319 332H277L282 421H319Q378 421 412 452T446 534Q446 587 415 613T325 640Q250 640 220 598T190 465V0H83V486Q83 602 141 666T331 730Q406 730 456 703T529 632T553 541Q553 504 535 468T481 409T391 385V383Q454 383 495 356Z" glyph-name="germandbls" horiz-adv-x="628" unicode="ß"/><glyph d="M537 70T552 74L545 2Q518 -10 483 -10Q440 -10 415 7T381 64Q358 29 313 10T212 -10Q139 -10 94 24T49 121Q49 180 98 220T244 278L371 300V327Q371 373 344 399T269 426Q170 426 140 336L57 380Q75 440 130 475T267 510Q364 510 421 465T478 333V107Q478 88 486 79T515 70Q537 70 552 74ZM289 71T330 97T371 166V226L262 204Q210 194 185 176T160 128Q160 100 179 86T235 71Q289 71 330 97ZM325 578H243L144 746H252L325 578Z" glyph-name="agrave" horiz-adv-x="570" unicode="à"/><glyph d="M537 70T552 74L545 2Q518 -10 483 -10Q440 -10 415 7T381 64Q358 29 313 10T212 -10Q139 -10 94 24T49 121Q49 180 98 220T244 278L371 300V327Q371 373 344 399T269 426Q170 426 140 336L57 380Q75 440 130 475T267 510Q364 510 421 465T478 333V107Q478 88 486 79T515 70Q537 70 552 74ZM289 71T330 97T371 166V226L262 204Q210 194 185 176T160 128Q160 100 179 86T235 71Q289 71 330 97ZM400 746L301 578H219L292 746H400Z" glyph-name="aacute" horiz-adv-x="570" unicode="á"/><glyph d="M537 70T552 74L545 2Q518 -10 483 -10Q440 -10 415 7T381 64Q358 29 313 10T212 -10Q139 -10 94 24T49 121Q49 180 98 220T244 278L371 300V327Q371 373 344 399T269 426Q170 426 140 336L57 380Q75 440 130 475T267 510Q364 510 421 465T478 333V107Q478 88 486 79T515 70Q537 70 552 74ZM289 71T330 97T371 166V226L262 204Q210 194 185 176T160 128Q160 100 179 86T235 71Q289 71 330 97ZM356 571L276 675L196 571H108L219 740H333L444 571H356Z" glyph-name="acircumflex" horiz-adv-x="570" unicode="â"/><glyph d="M537 70T552 74L545 2Q518 -10 483 -10Q440 -10 415 7T381 64Q358 29 313 10T212 -10Q139 -10 94 24T49 121Q49 180 98 220T244 278L371 300V327Q371 373 344 399T269 426Q170 426 140 336L57 380Q75 440 130 475T267 510Q364 510 421 465T478 333V107Q478 88 486 79T515 70Q537 70 552 74ZM289 71T330 97T371 166V226L262 204Q210 194 185 176T160 128Q160 100 179 86T235 71Q289 71 330 97ZM452 576T343 576Q314 576 295 586T254 616Q237 630 228 635T207 641Q188 641 178 625T162 575H89Q98 717 208 717Q236 717 254 707T296 677Q313 663 322 658T342 652Q362 652 372 668T388 717H461Q452 576 343 576Z" glyph-name="atilde" horiz-adv-x="570" unicode="ã"/><glyph d="M537 70T552 74L545 2Q518 -10 483 -10Q440 -10 415 7T381 64Q358 29 313 10T212 -10Q139 -10 94 24T49 121Q49 180 98 220T244 278L371 300V327Q371 373 344 399T269 426Q170 426 140 336L57 380Q75 440 130 475T267 510Q364 510 421 465T478 333V107Q478 88 486 79T515 70Q537 70 552 74ZM289 71T330 97T371 166V226L262 204Q210 194 185 176T160 128Q160 100 179 86T235 71Q289 71 330 97ZM205 700T223 683T241 637Q241 608 223 591T175 574Q146 574 128 591T110 637Q110 666 128 683T175 700Q205 700 223 683ZM407 700T425 683T443 637Q443 608 425 591T377 574Q347 574 330 591T312 637Q312 666 329 683T377 700Q407 700 425 683Z" glyph-name="adieresis" horiz-adv-x="570" unicode="ä"/><glyph d="M537 70T552 74L545 2Q518 -10 483 -10Q440 -10 415 7T381 64Q358 29 313 10T212 -10Q139 -10 94 24T49 121Q49 180 98 220T244 278L371 300V327Q371 373 344 399T269 426Q170 426 140 336L57 380Q75 440 130 475T267 510Q364 510 421 465T478 333V107Q478 88 486 79T515 70Q537 70 552 74ZM289 71T330 97T371 166V226L262 204Q210 194 185 176T160 128Q160 100 179 86T235 71Q289 71 330 97ZM333 806T367 774T402 688Q402 633 368 601T275 568Q216 568 181 600T146 688Q146 741 181 773T275 806Q333 806 367 774ZM246 751T228 734T209 688Q209 660 227 642T275 624Q304 624 322 642T340 688Q340 716 322 733T275 751Q246 751 228 734Z" glyph-name="aring" horiz-adv-x="570" unicode="å"/><glyph d="M830 244T826 214H480Q487 148 524 112T616 75Q664 75 692 92T732 143L820 106Q793 48 744 19T614 -10Q548 -10 500 17T425 99Q402 45 346 18T212 -10Q137 -10 93 25T49 121Q49 180 96 219T235 273L377 295V327Q377 373 349 399T268 426Q222 426 190 404T141 337L58 378Q77 440 133 475T272 510Q331 510 373 487T440 419Q468 463 511 486T609 510Q716 510 773 444T830 274Q830 244 826 214ZM557 425T523 391T480 291H731Q718 425 611 425Q557 425 523 391ZM295 71T336 103T377 191V225L266 204Q209 193 185 176T160 128Q160 71 239 71Q295 71 336 103Z" glyph-name="ae" horiz-adv-x="883" unicode="æ"/><glyph d="M506 81T465 44T360 -5Q387 -25 401 -51T416 -105Q416 -153 382 -184T292 -215Q253 -215 226 -206T177 -178L210 -116Q223 -129 241 -137T280 -146Q304 -146 320 -131T336 -90Q336 -63 320 -45T260 -7Q162 6 108 73T54 250Q54 372 120 441T303 510Q467 510 520 370L420 330Q394 425 303 425Q236 425 199 379T162 249Q162 165 199 120T303 75Q354 75 385 100T426 172L524 139Q506 81 465 44Z" glyph-name="ccedilla" horiz-adv-x="566" unicode="ç"/><glyph d="M530 236T526 210H160Q169 144 207 110T305 75Q354 75 386 92T431 143L520 106Q464 -10 305 -10Q187 -10 121 59T54 250Q54 373 118 441T298 510Q408 510 469 443T530 265Q530 236 526 210ZM240 425T205 391T160 292H430Q422 355 388 390T298 425Q240 425 205 391ZM344 578H262L163 746H271L344 578Z" glyph-name="egrave" unicode="è"/><glyph d="M530 236T526 210H160Q169 144 207 110T305 75Q354 75 386 92T431 143L520 106Q464 -10 305 -10Q187 -10 121 59T54 250Q54 373 118 441T298 510Q408 510 469 443T530 265Q530 236 526 210ZM240 425T205 391T160 292H430Q422 355 388 390T298 425Q240 425 205 391ZM419 746L320 578H238L311 746H419Z" glyph-name="eacute" unicode="é"/><glyph d="M530 236T526 210H160Q169 144 207 110T305 75Q354 75 386 92T431 143L520 106Q464 -10 305 -10Q187 -10 121 59T54 250Q54 373 118 441T298 510Q408 510 469 443T530 265Q530 236 526 210ZM240 425T205 391T160 292H430Q422 355 388 390T298 425Q240 425 205 391ZM375 571L295 675L215 571H127L238 740H352L463 571H375Z" glyph-name="ecircumflex" unicode="ê"/><glyph d="M530 236T526 210H160Q169 144 207 110T305 75Q354 75 386 92T431 143L520 106Q464 -10 305 -10Q187 -10 121 59T54 250Q54 373 118 441T298 510Q408 510 469 443T530 265Q530 236 526 210ZM240 425T205 391T160 292H430Q422 355 388 390T298 425Q240 425 205 391ZM224 700T242 683T260 637Q260 608 242 591T194 574Q165 574 147 591T129 637Q129 666 147 683T194 700Q224 700 242 683ZM426 700T444 683T462 637Q462 608 444 591T396 574Q366 574 349 591T331 637Q331 666 348 683T396 700Q426 700 444 683Z" glyph-name="edieresis" unicode="ë"/><glyph d="M190 0H83V500H190V0ZM442 578H360L261 746H369L442 578Z" glyph-name="igrave" horiz-adv-x="274" unicode="ì"/><glyph d="M190 0H83V500H190V0ZM525 746L426 578H344L417 746H525Z" glyph-name="iacute" horiz-adv-x="274" unicode="í"/><glyph d="M190 0H83V500H190V0ZM473 571L393 675L313 571H225L336 740H450L561 571H473Z" glyph-name="icircumflex" horiz-adv-x="274" unicode="î"/><glyph d="M23 574T6 591T-12 637Q-12 666 5 683T52 701Q82 701 99 684T117 637Q117 608 100 591T52 574Q23 574 6 591ZM191 574T174 591T157 637Q157 667 174 684T222 701Q251 701 268 684T286 637Q286 608 269 591T222 574Q191 574 174 591ZM190 0H83V500H190V0Z" glyph-name="idieresis" horiz-adv-x="274" unicode="ï"/><glyph d="M457 608Q551 481 551 293Q551 149 488 70T296 -10Q185 -10 121 56T56 239Q56 315 86 371T170 458T293 488Q403 488 454 418Q432 518 375 589L195 545L185 596L339 627Q289 675 196 728H321Q382 692 425 646L537 677L552 625L457 608ZM370 75T409 122T448 239Q448 319 411 362T307 405Q239 405 202 362T165 239Q165 161 201 118T303 75Q370 75 409 122Z" glyph-name="eth" horiz-adv-x="615" unicode="ð"/><glyph d="M435 510T487 462T540 324V0H433V290Q433 422 326 422Q270 422 230 384T190 265V0H83V500H178L183 417Q208 464 252 487T352 510Q435 510 487 462ZM493 576T384 576Q355 576 336 586T295 616Q278 630 269 635T248 641Q229 641 219 625T203 575H130Q139 717 249 717Q277 717 295 707T337 677Q354 663 363 658T383 652Q403 652 413 668T429 717H502Q493 576 384 576Z" glyph-name="ntilde" horiz-adv-x="619" unicode="ñ"/><glyph d="M420 510T486 441T552 250Q552 128 486 59T303 -10Q186 -10 120 59T54 250Q54 372 120 441T303 510Q420 510 486 441ZM235 426T199 381T162 250Q162 165 198 120T303 74Q371 74 408 120T445 250Q445 334 408 380T303 426Q235 426 199 381ZM352 578H270L171 746H279L352 578Z" glyph-name="ograve" horiz-adv-x="606" unicode="ò"/><glyph d="M420 510T486 441T552 250Q552 128 486 59T303 -10Q186 -10 120 59T54 250Q54 372 120 441T303 510Q420 510 486 441ZM235 426T199 381T162 250Q162 165 198 120T303 74Q371 74 408 120T445 250Q445 334 408 380T303 426Q235 426 199 381ZM427 746L328 578H246L319 746H427Z" glyph-name="oacute" horiz-adv-x="606" unicode="ó"/><glyph d="M420 510T486 441T552 250Q552 128 486 59T303 -10Q186 -10 120 59T54 250Q54 372 120 441T303 510Q420 510 486 441ZM235 426T199 381T162 250Q162 165 198 120T303 74Q371 74 408 120T445 250Q445 334 408 380T303 426Q235 426 199 381ZM383 571L303 675L223 571H135L246 740H360L471 571H383Z" glyph-name="ocircumflex" horiz-adv-x="606" unicode="ô"/><glyph d="M420 510T486 441T552 250Q552 128 486 59T303 -10Q186 -10 120 59T54 250Q54 372 120 441T303 510Q420 510 486 441ZM235 426T199 381T162 250Q162 165 198 120T303 74Q371 74 408 120T445 250Q445 334 408 380T303 426Q235 426 199 381ZM479 576T370 576Q341 576 322 586T281 616Q264 630 255 635T234 641Q215 641 205 625T189 575H116Q125 717 235 717Q263 717 281 707T323 677Q340 663 349 658T369 652Q389 652 399 668T415 717H488Q479 576 370 576Z" glyph-name="otilde" horiz-adv-x="606" unicode="õ"/><glyph d="M420 510T486 441T552 250Q552 128 486 59T303 -10Q186 -10 120 59T54 250Q54 372 120 441T303 510Q420 510 486 441ZM235 426T199 381T162 250Q162 165 198 120T303 74Q371 74 408 120T445 250Q445 334 408 380T303 426Q235 426 199 381ZM232 700T250 683T268 637Q268 608 250 591T202 574Q173 574 155 591T137 637Q137 666 155 683T202 700Q232 700 250 683ZM434 700T452 683T470 637Q470 608 452 591T404 574Q374 574 357 591T339 637Q339 666 356 683T404 700Q434 700 452 683Z" glyph-name="odieresis" horiz-adv-x="606" unicode="ö"/><glyph d="M336 591T355 572T375 520Q375 488 356 469T303 450Q269 450 250 469T230 520Q230 553 249 572T303 591Q336 591 355 572ZM548 275H56V364H548V275ZM336 188T355 169T375 118Q375 86 356 67T303 47Q269 47 250 66T230 118Q230 150 249 169T303 188Q336 188 355 169Z" glyph-name="divide" horiz-adv-x="604" unicode="÷"/><glyph d="M389 510T448 472L487 522H554L488 438Q552 369 552 250Q552 128 486 59T303 -10Q224 -10 168 22L125 -34H58L125 54Q54 123 54 250Q54 372 120 441T303 510Q389 510 448 472ZM192 136L224 181L388 398Q354 426 303 426Q235 426 199 381T162 250Q162 180 191 136H192ZM371 74T408 120T445 250Q445 311 420 353H419L390 313L227 96Q258 74 303 74Q371 74 408 120Z" glyph-name="oslash" horiz-adv-x="607" unicode="ø"/><glyph d="M536 500V0H441L437 81Q386 -10 259 -10Q178 -10 129 34T79 171V500H186V199Q186 133 212 106T289 78Q350 78 389 116T429 230V500H536ZM356 578H274L175 746H283L356 578Z" glyph-name="ugrave" horiz-adv-x="619" unicode="ù"/><glyph d="M536 500V0H441L437 81Q386 -10 259 -10Q178 -10 129 34T79 171V500H186V199Q186 133 212 106T289 78Q350 78 389 116T429 230V500H536ZM431 746L332 578H250L323 746H431Z" glyph-name="uacute" horiz-adv-x="619" unicode="ú"/><glyph d="M536 500V0H441L437 81Q386 -10 259 -10Q178 -10 129 34T79 171V500H186V199Q186 133 212 106T289 78Q350 78 389 116T429 230V500H536ZM387 571L307 675L227 571H139L250 740H364L475 571H387Z" glyph-name="ucircumflex" horiz-adv-x="619" unicode="û"/><glyph d="M536 500V0H441L437 81Q386 -10 259 -10Q178 -10 129 34T79 171V500H186V199Q186 133 212 106T289 78Q350 78 389 116T429 230V500H536ZM236 700T254 683T272 637Q272 608 254 591T206 574Q177 574 159 591T141 637Q141 666 159 683T206 700Q236 700 254 683ZM438 700T456 683T474 637Q474 608 456 591T408 574Q378 574 361 591T343 637Q343 666 360 683T408 700Q438 700 456 683Z" glyph-name="udieresis" horiz-adv-x="619" unicode="ü"/><glyph d="M314 -59Q281 -145 239 -180T129 -215Q90 -215 62 -206T11 -175L42 -93Q72 -129 124 -129Q154 -129 174 -114T211 -57L233 -3L181 121L25 500H145L255 186L284 92L318 195L422 500H533L314 -59ZM406 746L307 578H225L298 746H406Z" glyph-name="yacute" horiz-adv-x="546" unicode="ý"/><glyph d="M453 510T513 442T573 251Q573 167 545 108T467 20T352 -10Q298 -10 257 11T190 71V-210H83V725H190V426Q214 465 256 487T353 510Q453 510 513 442ZM393 77T429 122T466 250Q466 332 430 378T328 424Q265 424 228 379T190 256V244Q190 166 227 122T328 77Q393 77 429 122Z" glyph-name="thorn" horiz-adv-x="629" unicode="þ"/><glyph d="M314 -59Q281 -145 239 -180T129 -215Q90 -215 62 -206T11 -175L42 -93Q72 -129 124 -129Q154 -129 174 -114T211 -57L233 -3L181 121L25 500H145L255 186L284 92L318 195L422 500H533L314 -59ZM211 700T229 683T247 637Q247 608 229 591T181 574Q152 574 134 591T116 637Q116 666 134 683T181 700Q211 700 229 683ZM413 700T431 683T449 637Q449 608 431 591T383 574Q353 574 336 591T318 637Q318 666 335 683T383 700Q413 700 431 683Z" glyph-name="ydieresis" horiz-adv-x="546" unicode="ÿ"/><glyph d="M592 217H81V310H592V217Z" glyph-name="endash" horiz-adv-x="672" unicode="–"/><glyph d="M931 217H81V310H931V217Z" glyph-name="emdash" horiz-adv-x="1011" unicode="—"/><glyph d="M94 412T72 441T49 519Q49 576 78 623T167 697L219 654Q178 640 150 613T113 551L118 549Q126 557 146 557Q171 557 190 539T210 487Q210 455 188 434T134 412Q94 412 72 441Z" glyph-name="quoteleft" horiz-adv-x="267" unicode="‘"/><glyph d="M177 697T199 668T222 591Q222 534 193 487T104 412L52 455Q93 470 121 497T158 558L154 561Q144 553 125 553Q100 553 81 571T61 622Q61 654 83 675T137 697Q177 697 199 668Z" glyph-name="quoteright" horiz-adv-x="267" unicode="’"/><glyph d="M430 135T452 106T475 29Q475 -28 445 -75T357 -150L305 -106Q346 -92 374 -65T411 -3L406 -1Q398 -9 378 -9Q353 -9 334 9T314 61Q314 93 336 114T390 135Q430 135 452 106Z" glyph-name="quotesinglbase" horiz-adv-x="272" unicode="‚"/><glyph d="M94 412T72 441T49 519Q49 576 78 623T167 697L219 654Q178 640 150 613T113 551L118 549Q126 557 146 557Q171 557 190 539T210 487Q210 455 188 434T134 412Q94 412 72 441ZM299 412T277 441T254 519Q254 576 283 623T372 697L424 654Q383 640 355 613T318 551L323 549Q331 557 351 557Q376 557 395 539T415 487Q415 455 393 434T339 412Q299 412 277 441Z" glyph-name="quotedblleft" horiz-adv-x="472" unicode="“"/><glyph d="M177 697T199 668T222 591Q222 534 193 487T104 412L52 455Q93 470 121 497T158 558L154 561Q144 553 125 553Q100 553 81 571T61 622Q61 654 83 675T137 697Q177 697 199 668ZM381 697T403 668T426 591Q426 534 397 487T308 412L256 455Q297 470 325 497T362 558L358 561Q348 553 329 553Q304 553 285 571T265 622Q265 654 287 675T341 697Q381 697 403 668Z" glyph-name="quotedblright" horiz-adv-x="470" unicode="”"/><glyph d="M430 135T452 106T475 29Q475 -28 445 -75T357 -150L305 -106Q346 -92 374 -65T411 -3L406 -1Q398 -9 378 -9Q353 -9 334 9T314 61Q314 93 336 114T390 135Q430 135 452 106ZM378 135T400 106T423 29Q423 -28 393 -75T305 -150L253 -106Q294 -92 322 -65T359 -3L354 -1Q346 -9 326 -9Q301 -9 282 9T262 61Q262 93 284 114T338 135Q378 135 400 106Z" glyph-name="quotedblbase" horiz-adv-x="476" unicode="„"/><glyph d="M275 465T312 429T349 336Q349 278 312 242T215 206Q156 206 119 242T81 336Q81 393 118 429T215 465Q275 465 312 429Z" glyph-name="bullet" horiz-adv-x="430" unicode="•"/><glyph d="M151 265L277 69H172L46 265L172 461H277L151 265Z" glyph-name="guilsinglleft" horiz-adv-x="324" unicode="‹"/><glyph d="M152 461L278 265L152 69H47L173 265L47 461H152Z" glyph-name="guilsinglright" horiz-adv-x="324" unicode="›"/></font>
</defs>
</svg>
